1. Chào mừng bạn tới Diễn đàn Download Game Offline ChiaSeIT.Vn. Nếu đây là lần đầu tiên bạn ghé thăm diễn đàn. Bạn phải đăng ký trước, mới có thể sử dụng các tính năng và cập nhật bài viết mới từ trang chủ, nhấp vào liên kết đăng ký ở trên để bắt đầu

[Fshare][Lồng tiếng + Thuyết minh] Coco 2017 ViE REPACK 1080p BluRay DTS x264-Geek - Hội Ngộ Diệu Kỳ

Thảo luận trong 'Download Phim' bắt đầu bởi phuocngo, 29 Tháng tư 2018.

  1. phuocngo

    phuocngo Hội viên Chiaseit.vn

    Bài viết:
    227
    Đã được thích:
    2
    Điểm thành tích:
    117
    MY COMPUTER
    HĐH:
    Windows 7
    CPU:
    core i7-q720
    RAM:
    6 GB DDR3
    VGA:
    Radeon 5870
    Coco 2017 ViE REPACK 1080p BluRay DTS x264-Geek

    Hội Ngộ Diệu Kỳ
    (Lồng tiếng + Thuyết minh)

    [​IMG]

    [​IMG]

    [​IMG]

    [​IMG]


    Mã:
    File size								: 11.9 GiB
    Duration								 : 1 h 45 min
    Overall bit rate						 : 16.2 Mb/s
    Movie name							   : COCO: HỘI NGỘ DIỆU KỲ (2017)
    Encoded date							 : UTC 2018-04-27 11:24:33
    Writing application					  : mkvmerge v6.4.1 ('Omega Point') built on Sep 16 2013 22:05:10
    Writing library						  : libebml v1.3.0 + libmatroska v1.4.1
    Cover									: Yes
    Attachments							  : Cover Coco (2017).jpg
    
    Video
    ID									   : 1
    Format								   : AVC
    Format/Info							  : Advanced Video Codec
    Format profile						   : High@L4.1
    Format settings						  : CABAC / 5 Ref Frames
    Format settings, CABAC				   : Yes
    Format settings, RefFrames			   : 5 frames
    Codec ID								 : V_MPEG4/ISO/AVC
    Duration								 : 1 h 45 min
    Bit rate								 : 13.4 Mb/s
    Width									: 1 920 pixels
    Height								   : 804 pixels
    Display aspect ratio					 : 2.40:1
    Frame rate mode						  : Constant
    Frame rate							   : 23.976 (24000/1001) FPS
    Color space							  : YUV
    Chroma subsampling					   : 4:2:0
    Bit depth								: 8 bits
    Scan type								: Progressive
    Bits/(Pixel*Frame)					   : 0.361
    Stream size							  : 9.82 GiB (83%)
    Writing library						  : x264 core 155 r2867+74 66b5600 t_mod_Custom_2 [8-bit@all X86_64]
    Encoding settings						: cabac=1 / ref=5 / deblock=1:-3:-3 / analyse=0x3:0x133 / me=umh / subme=11 / psy=1 / fade_compensate=0.00 / psy_rd=0.60:0.00 / mixed_ref=1 / me_range=64 / chroma_me=1 / trellis=2 / 8x8dct=1 / cqm=0 / deadzone=21,11 / fast_pskip=0 / chroma_qp_offset=-2 / threads=36 / lookahead_threads=6 / sliced_threads=0 / nr=0 / decimate=1 / interlaced=0 / bluray_compat=0 / constrained_intra=0 / fgo=0 / bframes=7 / b_pyramid=2 / b_adapt=2 / b_bias=0 / direct=3 / weightb=1 / open_gop=0 / weightp=2 / keyint=250 / keyint_min=23 / scenecut=40 / intra_refresh=0 / rc=crf / mbtree=0 / crf=15.5000 / qcomp=0.60 / qpmin=0:0:0 / qpmax=36:36:36 / qpstep=4 / ip_ratio=1.30 / pb_ratio=1.20 / aq=3:0.80 / aq-sensitivity=10.00 / aq-factor=1.00:1.00:1.00 / aq2=0 / aq3=0 / zones=7997,8200,crf=12.3/8201,8487,crf=12.2/24365,24414,crf=12.2/37510,37736,crf=12.3/39040,39124,crf=12.3/39148,39702,crf=12.3/62080,62279,crf=12.3/62415,62489,crf=12.3/68954,69161,crf=12.3/100941,101106,crf=12.3/105694,105901,crf=12.1/117715,117787,crf=12.3/121633,121682,crf=12.3/121735,121861,crf=12.3/123828,123878,crf=12.2/125096,125180,crf=12.2/125463,125602,crf=12.2
    Default								  : Yes
    Forced								   : No
    Color range							  : Limited
    Color primaries						  : BT.709
    Matrix coefficients					  : BT.709
    
    Audio #1
    ID									   : 2
    Format								   : DTS
    Format/Info							  : Digital Theater Systems
    Codec ID								 : A_DTS
    Duration								 : 1 h 45 min
    Bit rate mode							: Constant
    Bit rate								 : 1 509 kb/s
    Channel(s)							   : 6 channels
    Channel positions						: Front: L C R, Side: L R, LFE
    Sampling rate							: 48.0 kHz
    Frame rate							   : 93.750 FPS (512 SPF)
    Bit depth								: 24 bits
    Compression mode						 : Lossy
    Stream size							  : 1.11 GiB (9%)
    Language								 : English
    Default								  : No
    Forced								   : No
    
    Audio #2
    ID									   : 7
    Format								   : AC-3
    Format/Info							  : Audio Coding 3
    Codec ID								 : A_AC3
    Duration								 : 1 h 45 min
    Bit rate mode							: Constant
    Bit rate								 : 320 kb/s
    Channel(s)							   : 2 channels
    Channel positions						: Front: L R
    Sampling rate							: 48.0 kHz
    Frame rate							   : 31.250 FPS (1536 SPF)
    Bit depth								: 16 bits
    Compression mode						 : Lossy
    Stream size							  : 240 MiB (2%)
    Title									: LONG TIENG @DAOLEMINH
    Language								 : Vietnamese
    Service kind							 : Complete Main
    Default								  : Yes
    Forced								   : Yes
    
    Audio #3
    ID									   : 9
    Format								   : AC-3
    Format/Info							  : Audio Coding 3
    Codec ID								 : A_AC3
    Duration								 : 1 h 45 min
    Bit rate mode							: Constant
    Bit rate								 : 640 kb/s
    Channel(s)							   : 6 channels
    Channel positions						: Front: L C R, Side: L R, LFE
    Sampling rate							: 48.0 kHz
    Frame rate							   : 31.250 FPS (1536 SPF)
    Bit depth								: 16 bits
    Compression mode						 : Lossy
    Stream size							  : 481 MiB (4%)
    Title									: THUYET MINH @AUV
    Language								 : Vietnamese
    Service kind							 : Complete Main
    Default								  : No
    Forced								   : No
    
    Text #1
    ID									   : 3
    Format								   : UTF-8
    Codec ID								 : S_TEXT/UTF8
    Codec ID/Info							: UTF-8 Plain Text
    Title									: Commentary
    Language								 : French
    Default								  : No
    Forced								   : No
    
    Text #2
    ID									   : 4
    Format								   : UTF-8
    Codec ID								 : S_TEXT/UTF8
    Codec ID/Info							: UTF-8 Plain Text
    Language								 : Spanish
    Default								  : No
    Forced								   : No
    
    Text #3
    ID									   : 5
    Format								   : UTF-8
    Codec ID								 : S_TEXT/UTF8
    Codec ID/Info							: UTF-8 Plain Text
    Title									: Commentary
    Language								 : Spanish
    Default								  : No
    Forced								   : No
    
    Text #4
    ID									   : 6
    Format								   : UTF-8
    Codec ID								 : S_TEXT/UTF8
    Codec ID/Info							: UTF-8 Plain Text
    Language								 : Swedish
    Default								  : No
    Forced								   : No
    
    Text #5
    ID									   : 8
    Format								   : UTF-8
    Codec ID								 : S_TEXT/UTF8
    Codec ID/Info							: UTF-8 Plain Text
    Language								 : Vietnamese
    Default								  : No
    Forced								   : No
    
    
    Link tải


    https://www.fshare.vn/file/LRR9PKF7E59M
     
    Suikoden thích bài này.
  2. quangbao250487

    quangbao250487 Hội viên Chiaseit.vn

    Bài viết:
    45
    Đã được thích:
    1
    Điểm thành tích:
    102
    MY COMPUTER
    HĐH:
    Windows 7
    CPU:
    Core i5-2410M
    RAM:
    4 GB DDR2
    VGA:
    GF GT 525M
    có bản 720p ko bạn ơi
     

Chia sẻ trang này